#TITLE:Du Quay Tinh Yeu;
#SUBTITLE:;
#ARTIST:Dong Nhi;
#TITLETRANSLIT:Du Quay Tinh Yeu;
#SUBTITLETRANSLIT:;
#ARTISTTRANSLIT:Dong Nhi;
#CREDIT:;
#BANNER:Du Quay Tinh Yeu-bn.png;
#BACKGROUND:Du Quay Tinh Yeu-bg.png;
#LYRICSPATH:;
#CDTITLE:pm4cd.png;
#MUSIC:Du Quay Tinh Yeu.mp3;
#OFFSET:0.000;
#SAMPLESTART:50.160;
#SAMPLELENGTH:20.000;
#SELECTABLE:YES;
#BPMS:0.000=115.020,416.750=57.500;
#STOPS:;
#BGCHANGES:;
// cache tags:
#FIRSTBEAT:0.750;
#LASTBEAT:418.000;
#SONGFILENAME:Songs/Music V.I.P ^_^/Du Quay Tinh Yeu/Du Quay Tinh Yeu.sm;
#HASMUSIC:1;
#HASBANNER:1;
#MUSICLENGTH:219.506;
// end cache tags

//---------------dance-single - ----------------
#NOTES:
     dance-single:
     :
     Hard:
     13:
     1.000,1.000,1.000,0.337,1.000,1249.000,318.000,74.000,0.000,131.000:
0000
0000
0000
1000
0000
0001
0000
0100
0000
0010
0000
1000
0000
0010
0000
0100
,
0000
0010
0000
0101
0000
0010
0000
0100
0000
0020
0000
0000
0000
0000
0000
0000
,
0000
0000
0000
0131
0000
0010
0000
0100
0000
1000
0000
0000
0000
0100
0000
0010
,
0000
0001
0000
1010
0000
0100
0000
1000
0000
0002
0000
0000
0000
0000
0000
0000
,
0000
0000
0000
1013
0000
1000
0100
0011
0000
1010
0000
0100
0000
0001
0000
0010
,
0000
0100
0000
1010
0000
0001
0010
1100
0000
2010
0000
0000
0000
0000
0000
0000
,
0000
0000
0000
3110
0000
0001
0100
1010
0000
0011
0000
0000
0000
1000
0100
0011
,
0000
1000
0000
0101
0000
0010
0000
1100
0000
0201
0000
0000
0000
0000
0000
0011
,
1000
0011
1300
0111
0000
1000
0010
0101
0000
0011
0000
0100
0000
1000
0000
1100
,
0000
0010
0000
0101
0000
0010
0100
0011
0000
1200
0000
0000
0000
0000
0000
0000
,
0000
0000
0000
0311
0000
0100
0010
1100
0000
1001
0000
0010
0000
0100
0000
1010
,
0000
0001
0000
0110
0000
0001
1000
0110
0000
0120
0000
0000
0000
0000
0000
0000
,
0000
0000
0000
1031
0000
0100
0001
1100
0000
0011
0000
0100
0000
0010
0000
0101
,
0000
0010
0000
1100
0000
0010
0001
0110
0000
2001
0000
0000
0000
0000
0000
0000
,
0000
0000
0000
3011
0000
0100
1000
0011
0000
0101
0000
0010
0000
0100
0000
1010
,
0000
0100
0000
0001
0000
0001
0010
1100
0000
0020
0000
0000
0000
0000
0000
1130
,
0010
1100
0010
1102
0000
0010
1000
0110
0000
1000
0000
1100
0000
0010
0000
1010
,
0000
1000
0003
1210
0000
1000
0001
1010
0000
1000
0000
1001
0000
0010
0000
0011
,
0000
1000
0300
0121
0000
1000
0001
1100
0000
0001
0000
1001
0000
0100
0000
0101
,
0000
0001
0030
2101
0000
0010
0001
0110
0000
0001
0000
0011
0000
0100
0000
0101
,
0000
0001
3000
1210
0000
0001
1000
0011
0000
1000
0000
1001
0000
0010
0000
1010
,
0000
0001
0300
1102
0000
0100
0010
1100
0000
0010
0000
0110
0000
1000
0000
1010
,
0000
0010
0003
1021
0000
0100
1000
0101
0000
0001
0000
1001
0000
0100
0000
1100
,
0000
1000
0030
1101
0000
0000
0000
1011
0000
0000
0000
2202
0000
0000
0000
0000
,
3303
0010
0000
0100
0000
0000
0000
0001
0000
0000
0000
0111
1000
0100
0010
0100
,
0010
1000
0100
1010
0100
1000
0010
0100
0001
0010
0100
1001
0010
0100
0001
1000
,
0100
0010
0100
1001
0010
0100
0010
0001
1000
0100
0010
0101
0010
0001
0100
0010
,
0100
1000
0100
1010
0100
0010
0001
0010
0100
1000
0100
0012
1000
0100
0010
0100
,
1000
0010
0100
1000
0100
0013
0000
0001
0000
0010
0000
2100
0010
0100
0001
0010
,
0100
0010
0001
0100
0010
0100
0010
0100
0001
0010
3100
0021
1000
0001
0100
1000
,
0001
1000
0100
1000
0100
0001
0130
1000
0000
0010
0000
0102
0010
1000
0100
1000
,
0010
0100
1000
0100
0010
0100
0010
1000
0100
0013
0000
1000
0000
0100
0000
0010
,
0000
0011
0000
0101
0010
0101
0010
0101
0010
0101
0010
1101
0010
0100
0010
0100
,
0001
0010
0100
1001
0010
0100
1000
0100
0010
0001
0100
0011
0100
0010
0100
1000
,
0100
0001
0010
0101
1000
0100
0010
0001
0100
0010
1000
0011
0100
1000
0010
0100
,
0010
0001
1000
0110
1000
0100
0010
0001
0010
1000
0100
0011
0100
1000
0010
0100
,
1000
0001
0010
0101
0010
0001
1000
0100
0000
0001
0000
1210
0001
0010
1000
0010
,
0001
0010
1300
0021
0100
0001
0100
1000
0100
1000
0031
2100
0010
0001
0010
0100
,
0001
0010
3100
1002
0100
0010
0100
1000
0010
0100
0013
0201
0010
0001
1000
0010
,
1000
0001
0310
2100
0010
0100
0010
0001
0100
0010
3001
0120
0001
1000
0100
0001
,
1000
0100
1030
0012
0100
1010
0100
1010
0100
1010
0103
1011
0100
1000
0100
1000
,
1000
0100
1000
0100
1000
1000
0100
1000
0100
1000
0100
1010
0100
1000
0100
0011
,
0100
2001
0000
0000
0000
0000
0000
0000
0000
0000
0000
3011
0100
0010
0100
0010
,
0100
0010
0100
0100
0010
0100
0010
0100
0010
0100
0010
1100
0010
0100
0010
0100
,
0010
0102
0000
0000
0000
0000
0000
0000
0000
0000
0000
0113
0001
1000
0001
1000
,
0001
1000
1000
0001
1000
0001
1000
1000
0001
1000
0001
0110
1000
0001
1000
0001
,
1000
0120
0000
0000
0000
0000
0000
0000
0000
0000
0000
0131
1000
0010
1000
0010
,
1000
0010
0010
1000
0010
1000
0010
0010
1000
0010
1000
0011
1000
0010
1000
0101
,
1000
0210
0000
0000
0000
0000
0000
1001
0010
1001
0010
1301
0000
0010
0000
0100
,
0000
1000
0000
0100
0000
0010
0000
0001
0000
0010
0000
0101
0000
1000
0000
0101
,
0000
0021
0000
0000
0000
0000
0000
0000
0000
0000
0000
1130
0000
0001
0000
0010
,
0000
0100
0000
0010
0000
0100
0000
1000
0000
0100
0000
0011
0000
0100
0000
0011
,
0000
0201
0000
0000
0000
0000
0000
0000
0000
0000
0000
0311
0000
0001
0100
1010
,
0000
0100
0000
0011
0000
1000
0000
0101
0000
0001
0000
0110
0000
1000
1000
0101
,
0000
1002
0000
0000
0000
0000
0000
0000
0000
0000
0000
1103
0000
0010
0010
0101
,
0000
0010
0000
0101
0000
0010
0000
1100
0000
0010
0000
1001
0000
0010
0001
1010
,
0000
2001
0000
0000
0000
0000
0000
0110
0001
0110
3001
1120
0000
1000
1000
1100
,
0000
0100
0000
0101
0000
1000
0000
1001
0000
0100
0030
1210
0000
0001
0001
0011
,
0000
1000
0000
1010
0000
0010
0000
1001
0000
0010
0300
1102
0000
0100
0100
0110
,
0000
1000
0000
1100
0000
0010
0000
1010
0000
0100
0003
2101
0000
0100
0100
0011
,
0000
0001
0000
0110
0000
0100
0000
0101
0000
0010
3000
1120
0000
0001
0100
1100
,
0000
0100
0000
0101
0000
1000
0000
1100
0000
0001
0030
1012
0000
0010
0010
1010
,
0000
0100
0000
0110
0000
0010
0000
1100
0000
0010
0003
2011
0000
0100
0100
0101
,
0000
0010
0000
0110
0000
0001
0000
0011
0000
0001
3000
1110
0000
0000
0000
0111
,
0000
0000
0000
2202
0000
0000
0000
0000
3303
0010
0000
0001
0000
0000
0000
0100
,
0000
0000
0000
1011
0100
1000
0010
0101
0010
1000
0100
0011
0100
1000
0010
1100
,
0001
0010
0100
1010
0100
0010
0001
0110
1000
0001
1000
0101
0010
0100
0010
1100
,
0001
0010
0100
1001
0010
0100
0010
0101
0010
0001
0010
1100
0010
0001
0100
1010
,
0100
0010
1000
0011
0100
0010
0001
1010
0100
1000
0100
0011
0100
0010
1000
0101
,
0010
0001
1000
0102
0010
0100
1000
0110
1000
0100
0013
1200
0010
1000
0010
1001
,
0010
1000
0301
0120
1000
0001
0100
1001
0100
1000
0031
2010
0001
0010
0001
0110
,
0001
0100
3010
1002
0100
1000
0100
1010
0100
1000
0013
0201
0010
0001
1000
0011
,
1000
0001
0310
2100
0010
0100
0001
0110
0001
0100
3001
1200
0001
1010
0001
1010
,
0001
1010
0301
1110
0001
0100
0010
1100
0010
0001
0010
0101
0010
0100
1000
0110
,
1000
0100
0010
1001
0010
0001
0010
1100
0010
0100
1000
0110
0001
0010
0001
1010
,
0100
1000
0100
0011
0100
0010
0100
1001
0010
0100
0010
0101
0010
0001
0010
1100
,
0010
0001
0010
0101
0010
0100
1000
0110
1000
0100
0010
0101
0010
0001
0010
1001
,
0100
1000
0100
1012
0100
0010
1000
0110
1000
0010
0103
0021
1000
0100
1000
0101
,
1000
0100
0031
0210
0001
0010
0001
1010
0001
1000
0310
2100
0010
0001
0010
0101
,
0010
0001
3001
1002
0010
0100
0010
1100
0010
0100
1003
0201
0010
0001
0010
1001
,
0010
1000
0301
1110
0001
0001
0010
0010
0100
0100
0010
0010
0001
0001
0010
0010
,
0100
0100
1000
1000
0100
0100
0010
0010
0001
0001
0010
0010
0001
0001
0010
0010
,
0100
0100
0010
0011
0100
0110
1000
1010
0001
0101
1000
1100
0010
0011
0100
0110
,
0001
1001
0010
1010
0001
0011
1000
1010
0100
0100
1000
1101
0000
0000
0000
1011
,
0000
0000
0000
2220
0000
0000
0000
0000
3330
0001
0000
0010
0000
0000
0000
0100
,
0000
0000
0000
1001
0100
0010
0100
0010
0100
1000
0100
1000
0100
0010
0001
0010
,
0001
0010
0100
1000
0100
0010
0100
0010
0001
0010
0100
0010
0100
1000
0100
1000
,
0100
0010
0001
0010
0001
0010
0100
0010
0001
0010
0100
1000
0100
0010
0100
1000
,
0100
0010
0001
0010
0100
0010
0100
1000
0100
0010
0001
0010
0100
1000
0100
0010
,
0001
0010
0100
1010
0100
0010
0001
0010
0001
1010
0100
1010
0001
0010
0100
0010
,
0100
1000
0100
0011
0100
1000
0100
0010
0001
0110
1000
0110
0001
0010
0100
1000
,
0100
0010
0001
0110
1000
0100
0010
0001
0010
1100
0010
1100
0010
0001
0010
0100
,
0010
0100
1000
0100
0010
0001
0010
1100
0010
0100
0010
0101
1000
0101
1000
0101
,
1000
0101
1000
0111
1000
0100
0010
0011
0100
0010
0100
1010
0100
0010
0001
0011
,
0100
1000
0100
0101
0010
0001
0100
0110
0010
1000
0100
1010
0010
0001
0100
1010
,
1000
0100
0010
0011
0010
0100
1000
1001
0001
0010
0100
1001
0100
0010
0001
0101
,
0010
0100
1000
1010
0100
0010
0001
1001
0100
1000
0100
0101
0100
1000
0100
0011
,
0001
0010
0100
1021
0100
0001
1000
1100
0100
0001
1030
0211
1000
0010
1000
1001
,
0010
0001
0310
2101
0010
0100
0001
0101
0010
0001
3100
1012
0100
0010
1000
1100
,
0010
1000
1003
1201
0010
1000
0001
0011
1000
0010
0301
1120
0001
0100
0001
0101
,
1000
0100
1030
0111
1000
1000
0100
0100
0010
0010
0001
0001
0010
0010
0100
0100
,
0010
0010
0100
0100
1000
1000
0100
0100
0010
0010
0001
0001
0010
0010
0001
0001
,
0100
0100
1000
1101
0100
0101
0001
0011
0010
0110
0100
0101
0001
0011
0010
0110
,
0100
1100
1000
1010
0010
0011
0001
1001
1000
1100
0100
0111
0000
0000
0000
1110
,
0000
0000
0000
2022
0000
0000
0000
0000
3033
0000
0000
0000
0000
0000
0000
0000
;

//---------------dance-single - ----------------
#NOTES:
     dance-single:
     :
     Medium:
     1:
     0.000,0.000,0.000,0.000,0.000,0.000,0.000,0.000,0.000,0.000:
0000
0000
0000
0000
;
